#TITLE:Emperor;
#SUBTITLE:;
#ARTIST:Hu Yanbin;
#TITLETRANSLIT:Emperor;
#SUBTITLETRANSLIT:;
#ARTISTTRANSLIT:Hu Yanbin;
#CREDIT:;
#BANNER:Emperor-bn.png;
#BACKGROUND:Emperor-bg.png;
#LYRICSPATH:;
#CDTITLE:pm4cd.png;
#MUSIC:Emperor.mp3;
#OFFSET:0.120;
#SAMPLESTART:65.850;
#SAMPLELENGTH:20.000;
#SELECTABLE:YES;
#BPMS:0.000=108.010,198.250=54.010,206.250=108.010;
#STOPS:;
#BGCHANGES:;
// cache tags:
#FIRSTBEAT:22.250;
#LASTBEAT:369.750;
#SONGFILENAME:Songs/Music V.I.P ^_^/Emperor/Emperor.sm;
#HASMUSIC:1;
#HASBANNER:1;
#MUSICLENGTH:217.469;
// end cache tags

//---------------dance-single - ----------------
#NOTES:
     dance-single:
     :
     Hard:
     9:
     0.690,0.850,1.000,0.041,1.000,745.000,282.000,9.000,0.000,28.000:
0000
0000
0000
0000
,
0000
0000
0000
0000
,
0000
0000
0000
0000
,
0000
0000
0000
0000
,
0000
0000
0000
0000
,
0000
0000
0000
0000
0000
0000
0000
0000
0000
0001
0000
0010
0000
0001
0001
0000
,
0100
0000
0001
0001
0000
1000
0000
0001
0001
1000
0000
0100
0000
1000
1000
0000
,
0010
0000
1000
1000
0000
0001
0000
1000
1000
0100
0000
0001
0000
0100
0100
0000
,
1000
0000
0100
0100
0000
0010
0000
0100
0100
0010
0000
0001
0000
0010
0010
0000
,
1000
0000
0010
0010
0000
0100
0010
0010
0010
1001
0000
0010
0000
0101
0001
1000
,
0100
0100
0001
1001
0000
1010
0000
0001
0001
1010
0000
0001
0000
1001
1000
0100
,
0010
0010
1000
1001
0000
1001
0000
1000
1000
0101
0000
1000
0000
0011
0001
0100
,
1000
0100
0001
0101
0000
1000
0000
0001
0001
1100
0000
0001
0000
1010
1000
0000
,
0001
0110
1000
1000
0000
1011
1000
1000
1000
0001
0010
0100
1000
0000
0010
0000
,
0010
0000
1100
0000
1100
0000
0001
0000
0000
0011
0000
0010
0000
0100
0000
1000
,
0000
0011
0000
0011
0000
0100
0000
0000
0000
1000
0100
0010
0001
0000
0001
0000
,
0001
0000
0110
0000
0110
0000
0001
0000
0000
0011
0000
0010
0000
1100
0000
0100
,
0000
0011
0000
0010
0000
1100
0000
0000
0000
0011
0000
0001
0000
0110
0000
0001
,
0000
0110
0000
0110
0000
0001
0000
0000
0000
1100
0000
0010
0000
0001
0000
0010
,
0000
1100
0000
1100
0000
0001
0000
0000
0000
1010
0000
0101
0000
0001
0000
1010
,
0000
0101
0000
1010
0000
0101
0000
0000
0000
0011
0000
0010
0000
1100
0000
0100
,
0000
0011
0000
0010
0000
1100
0000
0100
0010
1100
0000
0010
0000
0011
0000
0100
,
0000
0011
0000
1100
0000
0010
0000
0100
0000
0011
0000
1000
0000
0001
0000
1000
,
0000
0101
0000
0011
0000
0001
0000
1000
0000
1100
0000
0010
0000
1100
0000
0001
,
0000
0110
0000
0110
0000
0001
0000
0010
0000
1100
0000
0100
0000
0011
0000
0010
,
0000
1100
0000
0010
0000
0011
0000
0011
0000
0100
0000
1000
0000
0110
0000
0100
,
0010
0000
0000
0000
0000
1000
0000
0100
0000
0011
0000
0100
0000
1000
0000
0010
,
0000
1100
0000
1100
0000
0001
0000
0100
0000
1010
0000
0100
0000
0010
0000
0000
,
0000
0000
0000
0000
0000
0000
0000
0000
0000
1010
0000
0100
0000
1001
0000
0100
,
0000
1001
0000
0100
0000
1010
0000
1100
0000
1001
0000
0100
0000
0011
0000
0100
,
0000
1000
1000
0000
0000
0110
0000
0100
0000
0001
0000
0100
0000
1010
0000
0001
,
0000
1010
0000
0010
0000
1000
0000
0001
0000
0001
0000
0010
0000
1100
0000
0010
,
0000
0001
0000
0001
0000
1100
0000
0010
0000
0011
0000
0010
0000
1100
0000
0100
,
0000
0110
0000
0010
0000
1001
0000
0110
0000
1101
0000
0010
0000
1100
0010
0000
,
0001
1000
0010
0100
0000
1001
0000
0100
0010
1000
0000
0001
0000
1010
0100
0000
,
0100
1000
0010
0000
0000
1001
0000
0100
0010
1001
0000
0010
0000
0101
1000
0000
,
0100
0000
0010
0001
0000
1010
0000
0100
1000
0101
0000
0010
0000
0101
0010
0000
,
0100
0011
1000
0100
0000
1000
0100
1010
0001
1100
0000
0001
0000
0010
0000
0100
,
0000
1001
0000
0010
0000
0010
0000
0100
0000
1100
0000
0010
0000
0001
0000
0010
,
0000
0101
0000
1000
0000
1000
0000
0100
0000
0101
0000
0010
0000
0001
0000
1000
,
0000
0110
0000
0001
0000
0001
0000
1000
0000
1001
0000
0010
0000
0101
0000
1000
,
0000
1010
0000
0100
0000
0101
0000
1010
0000
0101
0000
0000
0000
1001
0000
0010
,
0000
1100
0000
0100
0000
0101
0000
0001
0000
0110
0000
0000
0000
1010
0000
0100
,
0000
0101
0000
0010
0000
1100
0000
0101
0000
1010
0000
0000
0000
0011
0000
0010
,
0000
1100
0000
1000
0000
1001
0000
0010
0000
0101
0000
0000
0000
1010
0000
0000
,
0000
0110
0000
0000
0000
1001
0000
0110
0000
1001
0000
0000
0000
1010
0000
0010
,
0000
1001
0000
0100
0000
0011
0000
1000
0000
0110
0000
0000
0000
1001
0000
0001
,
0000
1010
0000
0100
0000
0011
0000
0101
0000
0101
0000
0000
0000
0110
0000
0100
,
0000
1001
0000
0010
0000
1100
0000
0100
0000
0102
0000
0000
0000
0020
0000
0000
,
0000
0000
0203
0000
0000
0000
0000
0000
0000
0000
0031
0000
0000
0000
1000
0000
0000
0000
0321
0000
0001
0000
0001
0000
0000
0000
1000
0100
1000
0000
0001
0000
,
0000
0030
2000
0000
0100
0000
0100
0000
0000
0100
0001
0100
0001
0100
0001
0000
0100
3000
0002
0000
1000
0000
1000
0000
0000
0000
0100
0010
0100
0000
1000
0000
,
0100
0003
0210
0000
0001
0000
1010
0000
1000
0000
0011
0000
0001
0000
1010
0000
1001
0300
0011
0000
0000
0000
0100
0000
0000
0000
1001
0000
0000
0000
0010
0000
,
0000
1100
0000
1100
0000
0010
0000
0000
0000
1001
0000
0010
0000
0100
0000
0010
,
0000
0110
0000
0110
0000
1000
0000
0000
0000
0011
0000
1100
0000
0010
0000
1100
,
0000
0011
0000
1100
0000
0011
0000
0000
0000
0101
0000
0010
0000
1001
0000
0100
,
0000
1010
0000
0010
0000
1001
0000
1000
0100
0011
0000
0100
0000
1001
0000
0010
,
0000
0101
0000
1010
0000
0100
0000
0010
0000
0101
0000
0010
0000
0100
0000
0010
,
0000
1100
0000
0101
0000
0010
0000
0001
0000
0110
0000
1000
0000
0101
0000
0010
,
0000
0101
0000
0101
0000
0010
0000
0001
0000
0110
0000
1000
0000
0101
0000
0010
,
0000
1001
0000
0100
0000
0011
0000
0011
0000
0100
0000
1000
0000
0011
0000
0100
,
1000
0000
0000
0000
0000
0001
0000
0010
0000
1100
0000
0010
0000
0001
0000
0010
,
0000
1001
0000
1001
0000
0100
0000
1000
0000
0110
0000
0001
0000
0010
0000
0000
,
0000
0000
0000
0000
0000
0000
0000
0000
0000
1100
0000
0100
0000
0101
0000
0010
,
0000
1002
0000
0100
0000
1010
0000
0110
0000
1013
0000
0001
0000
0110
0000
0001
,
0000
0010
0010
0000
0000
1010
0000
0001
0000
0010
0000
1000
0000
0101
0000
0010
,
0000
0110
0000
0001
0000
0010
0000
1000
0000
1000
0000
0001
0000
0110
0000
1000
,
0000
0010
0000
0010
0000
1001
0000
0010
0000
0101
0000
0010
0000
1010
0000
0100
,
0000
0101
0000
0010
0000
1010
0000
0011
0000
1110
0000
0001
0000
1010
0001
0000
,
0100
1000
0001
0010
0000
1001
0000
0001
0010
1000
0000
0100
0000
0101
1000
0000
,
0010
1000
0001
0000
0000
1001
0000
0010
0100
1001
0000
0100
0000
0011
0100
0000
,
1000
0000
0100
0010
0000
1100
0000
0001
0010
0101
0000
0100
0000
0011
0100
0000
,
0100
1001
0010
0001
0000
0001
0100
1010
0100
0011
0000
0100
0000
0011
0000
0001
,
0000
0010
0000
1100
0000
1010
0000
0100
0000
0101
0000
0010
0000
1010
0000
0100
,
0000
1000
0000
0001
0000
1100
0000
0011
0000
0110
0000
0100
0000
1010
0000
0001
,
0000
0100
0000
0011
0000
0101
0000
1000
0000
0110
0000
1000
0000
0010
0000
0101
,
0000
1000
0000
0100
0000
0000
0000
0000
0000
1011
0000
0100
0000
1011
0000
0100
,
0000
1000
1000
0000
0000
0110
0000
0100
0000
1101
0000
0100
0000
1010
0000
0001
,
0000
1110
0000
0010
0000
1000
0000
0001
0000
1011
0000
0010
0000
1100
0000
0010
,
0000
0101
0000
0001
0000
1100
0000
0010
0000
0111
0000
0010
0000
1110
0000
0100
,
0000
0111
0000
0010
0000
1001
0000
0110
0000
1101
0000
0010
0000
1100
0010
0000
,
0001
1000
0010
0100
0000
1001
0000
0100
0010
1000
0000
0001
0000
1010
0100
0000
,
0100
1000
0010
0000
0000
1001
0000
0100
0010
1001
0000
0010
0000
0101
1000
0000
,
0100
0000
0010
0001
0000
1010
0000
0100
1000
0101
0000
0010
0000
0101
0010
0000
,
0100
0011
1000
0100
0000
1000
0100
1010
0001
1110
0000
0100
0000
1010
0000
1001
,
0000
0101
0010
1000
0000
0001
0000
0100
0000
0110
0000
1000
0000
0001
0000
0100
,
0000
1001
0000
0100
0000
1000
0000
0011
0000
0101
0000
0100
0000
0010
0000
1001
,
0000
0110
0001
1000
0000
0101
0000
0010
0000
0110
0000
1000
0000
0101
0000
0010
,
0000
0101
0000
1000
0000
0101
0000
1100
0000
1100
0000
0010
0000
1100
0000
0011
,
0000
1100
0010
0001
0000
0100
0000
1000
0000
1010
0000
0001
0000
0100
0000
0010
,
0000
1010
0000
0100
0000
0010
0000
1001
0000
1010
0000
0100
0000
0010
0000
1100
,
0000
0011
0100
1000
0000
0100
0000
1010
0000
1102
0000
0010
0000
1100
0000
0100
,
0000
1010
0000
0100
0000
1010
0000
1013
0000
1000
0000
0100
0000
0001
0000
0000
,
0000
0001
0010
0100
0000
0001
0000
0100
0000
0000
0000
0000
0000
0000
0000
0000
;
